<?xml version="1.0" standalone="no"?>
<!DOCTYPE svg PUBLIC "-//W3C//DTD SVG 1.1//EN" "http://www.w3.org/Graphics/SVG/1.1/DTD/svg11.dtd" >
<svg xmlns="http://www.w3.org/2000/svg">
<metadata>
This is a custom SVG webfont generated by Font Squirrel.
Copyright   : Typeface  Tup Wanders 2009
Designer    : Tup Wanders
Foundry     : Free font Do not sell
</metadata>
<defs>
<font id="webfontb8ENX5QC" horiz-adv-x="1013" >
<font-face units-per-em="2048" ascent="1638" descent="-410" />
<missing-glyph horiz-adv-x="440" />
<glyph unicode=" "  horiz-adv-x="440" />
<glyph unicode="&#x09;" horiz-adv-x="440" />
<glyph unicode="&#xa0;" horiz-adv-x="440" />
<glyph unicode="!" horiz-adv-x="446" d="M-104 221l73 -147q16 -31 115 -4q41 12 59 20q47 20 39 39q-72 139 -73 150q-14 29 -115 2q-110 -31 -98 -60zM-37 414q-4 -10 4 -16.5t29 -6.5q33 0 51 4q109 23 127 58q16 49 64 245l34 144l35 143q88 356 105 559q0 12 -33 12q-31 4 -72 -6q-109 -23 -110 -61 q-18 -223 -103 -555l-67 -275l-36 -137l-23 -84.5t-5 -23.5z" />
<glyph unicode="&#x22;" horiz-adv-x="1218" d="M-51 1229q-25 -20 4 -31q25 -6 47 -4q90 8 141 51q96 80 125 180q34 114 -18 215q-20 35 -123 2q-45 -14 -68 -28q-29 -18 -22 -31q49 -90 20 -192q-24 -94 -106 -162zM299 1229q-25 -20 4 -31q25 -6 45 -4q92 10 144 51q96 80 124 180q34 114 -18 215q-20 35 -125 2 q-41 -12 -65 -28q-29 -18 -23 -31q49 -90 21 -192q-25 -94 -107 -162z" />
<glyph unicode="#" horiz-adv-x="1335" />
<glyph unicode="$" />
<glyph unicode="%" horiz-adv-x="1609" />
<glyph unicode="&#x26;" horiz-adv-x="798" d="M-283 340q10 -117 103 -170q78 -45 203 -23q164 31 296 168q57 -119 84 -229q10 -35 115 -8q53 14 78 29.5t20 33.5q-35 137 -149 365q31 47 80 129q57 92 67 110q8 14 16.5 26.5l14.5 21.5q2 2 5 6t7 10q2 2 6 7l3 3q23 23 -7 33q-14 6 -45 2q-106 -8 -141 -51 q-35 -41 -90 -129q-61 131 -86 229q25 14 27 17q106 61 184 143q90 92 123 174q49 121 -35 192.5t-277 -12.5q-98 -43 -174 -143q-117 -154 -67 -400q-125 -72 -189 -122q-88 -72 -135 -187q-45 -110 -37 -225zM-68 387q-16 115 33 221q45 104 137 174q29 -96 148 -325 q-51 -78 -82 -115q-25 -31 -59 -66q-8 -8 -33 -28q-8 -8 -17 -15l-2 -2h-2q0 -2 -4 -4l-12 6q-91 37 -107 154zM279 1010q-6 77 6 147q14 84 80 168q8 10 30 33q66 -53 25 -158q-33 -86 -121 -172q-6 -4 -20 -18z" />
<glyph unicode="'" horiz-adv-x="1218" d="M-10 1229q-25 -20 4 -31q25 -6 45 -4q92 10 143 51q92 78 123 180q35 117 -16 215q-20 35 -125 2q-45 -14 -68 -28q-29 -18 -22 -31q49 -92 22 -192q-24 -94 -106 -162z" />
<glyph unicode="(" horiz-adv-x="757" />
<glyph unicode=")" horiz-adv-x="757" />
<glyph unicode="*" horiz-adv-x="1024" />
<glyph unicode="+" />
<glyph unicode="," horiz-adv-x="405" d="M-14 -141q-25 -20 4 -31q25 -6 47 -4q90 8 141 51q94 76 125 180q34 114 -18 215q-20 35 -123 2q-45 -14 -68 -28q-29 -18 -22 -31q49 -90 20 -193q-24 -93 -106 -161z" />
<glyph unicode="-" horiz-adv-x="669" />
<glyph unicode="." horiz-adv-x="1218" d="M14 221l74 -147q16 -31 117 -4q35 10 57 20q25 10 35 20.5t6 18.5q-72 139 -74 150q-14 29 -114 2q-113 -31 -101 -60z" />
<glyph unicode="/" horiz-adv-x="567" />
<glyph unicode="0" horiz-adv-x="638" d="M-84 264q6 -123 59 -176q29 -29 91 -31q78 -2 200 47q98 39 176 158q70 111 115 305q31 131 49 293q25 205 25 303q-4 197 -86 267q-29 23 -137 -15q-74 -27 -70 -49q-39 -12 -64 -35q-143 -113 -241 -379q-82 -223 -109 -481q-12 -107 -8 -207zM129 395q2 240 88 520 q74 236 176 361q12 -35 19 -88q10 -92 -2 -232q-18 -219 -58 -399q-61 -287 -174 -397q-10 14 -22 37q-29 65 -27 198z" />
<glyph unicode="1" horiz-adv-x="555" d="M-8 111q-4 -12 4 -18.5t28.5 -7.5t51.5 5q47 10 82 27q43 20 45 33q27 102 141 622q94 438 145 625q4 14 -8 20t-39 4q-33 -4 -65 -12q-4 0 -28.5 -8l-45.5 -15q-47 -16 -63 -18q-100 -12 -144 -51q-23 -23 4 -31q18 -6 45 -2q57 6 121 27q-45 -172 -139 -600 q-86 -403 -135 -600z" />
<glyph unicode="2" horiz-adv-x="698" d="M-190 111q-13 -15 17 -21q7 -1 15 -2q27 -2 54 2q31 8 104 4q8 0 131 -12q166 -18 315 33q33 12 50 22q39 23 16 35q-35 23 -129 -8q-2 0 -4 -1t-4 -1t-17.5 1t-27.5 1q-20 0 -119 10q-95 9 -166 6q47 57 94 99q80 76 99 92q96 96 192 223q190 250 252 524 q29 125 -16 211q-51 100 -203 76q-170 -29 -275 -148q-70 -78 -127 -221q-45 -119 -73 -268q-6 -35 86 -20q47 10 80 26q41 18 45 33q53 293 174 457q20 29 45 49l4 -4q63 -45 57 -183q-6 -100 -82 -272q-53 -127 -143 -252q-66 -92 -184 -221l-113 -109q-76 -74 -109 -110z M385 164h4h-4z" />
<glyph unicode="3" horiz-adv-x="679" d="M-104 190q6 -84 75 -131q61 -41 187 -18q137 25 231 113q72 68 103 147q39 94 20 176q-23 106 -76 133q88 82 168 246q117 238 86 416q-14 90 -88 145q-72 55 -217 17q-201 -55 -307 -281q-66 -141 -47 -231q6 -35 112 -9q53 14 79 31t22 35q-25 133 106 319q12 18 45 52 q37 -27 56 -60q76 -127 -21 -387q-80 -219 -211 -330q-41 -27 -47 -30q-16 -14 -2 -27q10 -8 31 -8q29 0 59 6q6 -6 21 -45q25 -61 20 -123q-10 -121 -106 -211q-4 -4 -6.5 -5t-4.5 -3q-29 12 -51 43q-61 89 12 209q6 10 -1 14t-29 6q-39 0 -54 -2q-102 -18 -127 -57 q-44 -70 -38 -150z" />
<glyph unicode="4" horiz-adv-x="587" d="M-76 492q23 -39 119 -35q84 4 197 24h2q-74 -256 -97 -418q-4 -18 54 -12q43 4 61 8q94 25 100 62q27 172 95 409q37 14 51 39q6 10 -3 17.5t-32 7.5q86 297 109 397q9 37 -84 19q-55 -10 -82 -25q-43 -20 -45 -33q-18 -88 -107 -397q-16 -4 -45 -8q-4 -2 -16 -2l-5 -1 q-5 -1 -10 -1h-16h-12q-12 2 -13 2q-8 4 -12 20q-4 31 21 117q2 14 39 125q8 27 36 158q59 283 129 469q4 10 -4 16t-28 8q-27 0 -54 -6q-111 -20 -125 -57q-63 -162 -137 -508q-16 -74 -39 -146q-35 -115 -41 -143q-22 -83 -6 -106z" />
<glyph unicode="5" horiz-adv-x="741" d="M-31 209q8 -117 99 -168q101 -58 282 25q94 39 185 151q176 219 151 410q-16 111 -100 172q-86 66 -256 24q-6 -2 -19.5 -5t-24 -6t-18.5 -7q12 236 74 457q76 -8 119 -15q68 -8 149 29q18 8 37 27q23 23 -10 26q-170 23 -268 25l6 12q9 26 -36 26q-20 0 -50 -6 q-113 -20 -125 -57l-4 -10l-10 -4q-18 -10 -23 -27q0 -12 16 -18q-92 -301 -92 -631q0 -25 86 -8q92 16 117 47q37 41 78 72q29 -6 53 -25q29 -20 53 -59q92 -154 -35 -369q-57 -94 -102 -141q-12 -14 -41 -39q-45 25 -67 106q-12 41 -9 92q6 20 11 33q6 12 12 21l-4 -3 q-7 -3 -13 -6q29 14 37 25q23 23 -12 29q-63 14 -147 -29q-107 -55 -99 -176z" />
<glyph unicode="6" horiz-adv-x="686" d="M-51 389q0 -150 59 -239q72 -109 240 -60q137 43 221 164q131 190 106 358q-18 119 -169 101q-104 -12 -234 -80q20 172 59 323q55 211 136 353q33 59 77 104q49 -29 50 -133q0 -84 -35 -186q-9 -26 36 -26q20 0 50 5q113 20 125 57q80 244 -6 340q-55 61 -199 31 q-125 -29 -201 -92q-94 -80 -174 -272q-66 -168 -104 -385q-37 -203 -37 -363zM168 571v2q74 0 145 41q2 2 9 7h2q0 -2 4 -5l4 -2q2 0 6 -4l2 -2v-2q39 -51 14 -168q-25 -106 -90 -211l-26 -39l-2 5q-31 35 -56 106q-26 82 -12 272zM307 627h2h2h-4zM346 631z" />
<glyph unicode="7" horiz-adv-x="552" d="M-147 -178q-8 -24 30 -25q20 0 54 6q115 23 126 58q61 193 312 786q28 -6 49 -12q53 -18 149 29q25 12 37 24q16 20 -10 29q-80 25 -186 24q156 373 219 619q4 16 -19 22q-80 25 -192 17q-41 -4 -98 -13q-25 -4 -99 -10q-96 -10 -143 -51q-23 -23 4 -31q25 -6 47 -4 q264 23 283 17q-70 -254 -205 -584q-8 -2 -37 -7t-49 -9q-102 -18 -125 -58q-6 -10 2 -15t31 -7q37 0 53 4q12 2 92 14q-253 -602 -325 -823z" />
<glyph unicode="8" horiz-adv-x="745" d="M-94 420q-2 -129 84 -230q84 -96 215 -108t270 47q88 37 123 109q47 102 -18 305q-37 121 -142 319q-135 258 -141 387q-6 141 102 238q4 4 17 12h2q16 -6 45 -31q68 -63 24 -217q-29 -96 -102 -219q0 -2 -2 -3t-2 -3q-6 -10 2 -15t31 -7q25 0 53 4q100 18 125 57 q66 104 102 215q45 139 2 221q-61 106 -233 82q-162 -23 -270 -127q-125 -117 -107 -289q12 -111 111 -309q-289 -213 -291 -438zM125 418q-31 170 125 338q33 -66 43 -88q88 -195 106 -330q10 -80 -8 -129q-8 -25 -26 -43q-12 0 -23 2q-53 10 -102 45q-90 66 -115 205z" />
<glyph unicode="9" horiz-adv-x="716" d="M-33 86q27 -23 84 -16q72 6 148 41q72 35 153 118q139 141 203 250q53 90 109 295q58 224 43 381q-18 188 -168 225q-115 29 -260 -39q-82 -35 -144 -124q-96 -145 -82 -349q6 -86 47 -145q61 -86 199 -74q78 8 139 37q-4 -16 -12 -45q-43 -137 -86 -207 q-47 -72 -143 -180q-39 -45 -84 -86q-31 -2 -82 -23q-86 -30 -69 -54q2 -3 5 -5zM268 913q-23 188 78 342q20 29 31 39l2 -1q2 -1 4 -1q29 -12 55 -41q74 -84 54 -315q-6 -55 -19 -109q-10 0 -16 -2q-55 -10 -82 -24q-39 -18 -43 -33v-4q-2 2 -6 5t-7 5q-39 43 -51 139z M401 1315l2 2z" />
<glyph unicode=":" horiz-adv-x="387" d="M-104 221l73 -147q16 -31 115 -4q41 12 59 20q47 20 39 39q-72 139 -73 150q-14 29 -115 2q-110 -31 -98 -60zM59 965l74 -148q16 -31 115 -4q27 8 59 23q47 20 39 38l-74 148q-12 31 -114 2q-111 -30 -99 -59z" />
<glyph unicode=";" horiz-adv-x="399" d="M-104 -141q-25 -20 4 -31q25 -6 47 -4q90 8 141 51q94 76 125 180q34 114 -18 215q-20 35 -123 2q-45 -14 -68 -28q-29 -18 -22 -31q49 -90 20 -193q-24 -93 -106 -161zM70 965q0 -4 8 -19.5l27.5 -52.5t37.5 -76q16 -31 115 -4q27 8 59 23q47 20 39 38l-73 148 q-12 31 -115 2q-57 -16 -81.5 -30.5t-16.5 -28.5z" />
<glyph unicode="&#x37e;" horiz-adv-x="399" d="M-104 -141q-25 -20 4 -31q25 -6 47 -4q90 8 141 51q94 76 125 180q34 114 -18 215q-20 35 -123 2q-45 -14 -68 -28q-29 -18 -22 -31q49 -90 20 -193q-24 -93 -106 -161zM70 965q0 -4 8 -19.5l27.5 -52.5t37.5 -76q16 -31 115 -4q27 8 59 23q47 20 39 38l-73 148 q-12 31 -115 2q-57 -16 -81.5 -30.5t-16.5 -28.5z" />
<glyph unicode="&#x3c;" />
<glyph unicode="=" />
<glyph unicode="&#x3e;" />
<glyph unicode="?" horiz-adv-x="804" d="M-35 207q59 -160 66 -170q16 -31 114 -4q114 31 99 61q-8 16 -66 168q-12 31 -115 4q-110 -28 -98 -59zM23 522q6 -33 112 -6q109 25 103 64q-23 117 53 241q47 80 162 197q248 254 286 307q76 104 62 166q-18 74 -166 74q-111 0 -264 -47q-8 -4 -15 -7l-12 -4 q-2 0 -45 -16q-70 -35 -88 -45q-109 -63 -172 -133q-94 -106 -8 -178q33 -27 137 12q86 30 68 54l-5 5q-55 47 -2 119q33 49 131 109l21 10l4 2q10 4 31 14l-6 -2q-4 -2 -13 -4q12 2 35 12q2 0 9.5 3.5t11.5 3.5h2q4 2 12 3t12 1q2 2 6 2h5h6h24q12 0 33 -9 q117 -51 -121 -292q-262 -272 -315 -340q-119 -160 -94 -316z" />
<glyph unicode="@" horiz-adv-x="2017" />
<glyph unicode="A" horiz-adv-x="782" d="M-190 446h10q72 0 135 37q14 2 27 2h18q-63 -201 -94 -311q-1 -3 -1 -6q0 -19 35 -18q20 0 52 6q57 12 82 24q41 18 43 33q35 125 80 262q12 -1 24 -1q22 0 47 3q55 6 97 7q34 0 59 -5q-16 -328 -16 -522q0 -12 32 -12q5 -1 12 -1q22 0 62 9q106 20 107 63q0 252 30 756 q29 522 29 758q0 12 -41 12q-15 8 -41 8q-18 0 -43 -4q-94 -18 -125 -57q-28 -37 -141 -295l-74 -166l-72 -166q-63 -145 -116 -297q-133 -14 -230 -73q-23 -14 -23 -28q1 -18 36 -18zM227 569q70 201 127 332l105 238q-3 -95 -31 -572q-16 -2 -53 -6q-31 0 -148 8z" />
<glyph unicode="B" horiz-adv-x="733" d="M-117 156q-1 -4 -1 -7q0 -20 44 -18q8 -6 29 -6q17 -1 34 -1q210 0 429 105q233 109 256 293q1 13 1 24q0 121 -158 121q-49 0 -114 -12q86 80 158 191q117 179 117 342q0 22 -2 45q-18 170 -164 246q-79 42 -184 42q-91 0 -201 -32q-99 -28 -99 -55q0 -23 38 -23 q28 0 77 14l21 7l8 2h4h10q-4 -8 -4 -13q-23 -182 -149 -622q-43 -147 -78 -310l-39 -181zM96 211q14 43 66 299q43 6 86 29q6 4 20.5 9t18.5 7l2 2h2q16 8 28 12h3h2l12 4l10 2q2 0 6 1.5t6 1.5t6.5 1t6.5 1h2h6h6l3 -1q3 -1 5 -1q20 -4 35 -15q33 -20 33 -84 q0 -70 -49 -135q-18 -23 -52 -47q-4 -6 -20 -14q-4 -2 -8 -5.5t-8 -5.5q-14 -10 -15 -10q-6 -2 -14 -5t-16 -7l-5 -2l-8 -4t-14 -6q-1 0 -5 -2q-5 -2 -9 -3l-13 -4q-4 0 -12 -3t-14 -5l-27 -4l-6 -2q-4 0 -19 -2q-4 0 -13 -1t-15 -1h-1h-2h-20zM184 612q37 145 60 224 q106 371 135 524q74 -72 84 -205q1 -13 1 -27q0 -135 -108 -311q-74 -121 -172 -205z" />
<glyph unicode="C" horiz-adv-x="729" d="M-27 449v-46q0 -156 19 -219q39 -139 198 -149h16q84 0 161 33q86 40 141 110t104 238q1 4 2 7q0 17 -35 17q-21 0 -53 -6q-53 -12 -80 -24q-43 -20 -45 -33q-39 -129 -75 -195q-20 -35 -35 -51q-84 37 -103 172q-3 32 -2 121v92q14 262 62 481q66 311 219 455q2 0 2 3 l2 3q51 -37 68 -145q3 -23 3 -49q0 -70 -24 -174q-49 -215 -49 -222q-2 -8 11.5 -12t41.5 -2q31 2 62 10q92 25 98 62q2 20 31 145q20 82 32 148q8 55 9 101q0 106 -43 171q-44 63 -138 63q-44 0 -98 -14q-139 -33 -233 -137q-145 -162 -211 -477q-42 -209 -58 -477z" />
<glyph unicode="D" horiz-adv-x="638" d="M-134 78q0 -20 36 -20q19 0 49 5q57 12 82 25q27 12 37 23q37 6 96 28q227 94 373 439q127 302 127 601v27q-6 260 -131 363q-61 50 -173 50q-13 0 -26 -1q-147 -6 -330 -107q-27 -14 -20 -28q6 -16 32 -17h11q71 0 141 39l4 4q6 2 19 9q2 0 8 3l10 5l3 1q3 1 7 2t8 3h2 q2 2 4.5 2t6.5 -1t6 -1h4h6q16 -4 27 -8h2q2 -2 6 -3t6 -1q4 -2 18 -13q25 -16 39 -32q31 -31 52 -84q46 -112 46 -266q0 -136 -36 -304q-51 -231 -156 -418q-52 -92 -110 -153q-23 -25 -58 -53q160 688 228 1259q0 10 -31 10q-8 1 -17 1q-27 0 -57 -7q-104 -18 -111 -61 q-14 -118 -55 -296t-81 -328.5t-72 -343t-32 -353.5z" />
<glyph unicode="E" horiz-adv-x="587" d="M-143 252q8 -100 80 -162q54 -45 165 -45h15q117 2 225 70q111 68 154 174q4 10 -4.5 15t-28.5 7q-35 0 -53 -4q-111 -20 -125 -57q-29 -72 -80 -115q-2 -2 -4 -2h-8q-6 2 -23 10q-25 12 -45 33q-41 41 -53 131q-2 16 -2 33q0 102 80 225l26 35q20 -8 72 -12q6 0 11 -1 q59 0 120 29q45 20 45 38q0 6 -6 12q-43 40 -105 49q-4 6 -12 14q-29 41 -45 125q-14 72 -14 141t14 135q41 193 150 287q2 2 9 7.5t13 9.5h4h12q71 -10 71 -72q0 -5 -1.5 -16t-1.5 -17q0 -20 35 -20q20 0 51 6q55 10 82 24q43 20 45 31q4 18 4 34q0 79 -86 105 q-39 12 -87 13q-81 0 -189 -35q-219 -70 -304 -324q-33 -98 -33 -215q0 -60 9 -127q12 -96 51 -153q-55 -29 -102 -78q-133 -144 -133 -304z" />
<glyph unicode="F" horiz-adv-x="577" d="M-109 109q0 -14 35 -14q10 0 21 1q31 2 61 10q92 25 98 62q29 223 84 500l146 12q94 6 143 49q22 22 -6 31q-20 6 -45 4q-147 -10 -221 -23q72 340 153 648q100 18 180 18q37 0 70 -4q15 -2 30 -2q57 0 120 29q23 10 37 26q8 8 8 15q0 10 -19 12q-51 7 -112 7 q-125 0 -293 -30l1 3t1 5q2 4 2 9q1 3 1 6q0 19 -35 18q-20 0 -52 -6q-57 -12 -82 -25q-41 -18 -43 -32q0 -2 -2 -10.5l-4 -16.5q-31 -16 -39 -33q-4 -8 1 -13t22 -7l-70 -256.5t-76.5 -287.5l-54 -231t-48 -264t-12.5 -210z" />
<glyph unicode="G" horiz-adv-x="626" d="M-102 283q0 -7 -1 -14q0 -128 60 -171q32 -23 84 -23q61 0 149 31q94 33 183 119q74 72 121 195q23 61 30 110q3 17 3 33q0 30 -11 45q-17 27 -66 28q-25 0 -57 -7q-104 -20 -196 -94q-23 -20 4 -29q25 -6 47 -4q31 2 65 12q2 -39 -24 -121q-23 -68 -68 -137 q-8 -12 -10 -14q-10 -12 -31 -33l-8 -8t-11 -12.5t-11 -10.5q-4 6 -17 23q-18 33 -20 102q-1 7 -1 18q0 55 13 201q27 313 168 617q78 168 145 254q21 -48 21 -98q0 -46 -27 -66q-25 -23 4 -31q25 -6 45 -4q90 10 144 51q45 33 45 109q0 57 -29 119q-31 62 -107 62 q-59 0 -145 -38q-83 -37 -166 -154q-74 -104 -131 -221q-135 -272 -176 -608q-14 -108 -18 -231zM414 569q2 0 6 4q-4 -4 -6 -4z" />
<glyph unicode="H" horiz-adv-x="778" d="M-92 559q13 -8 35 -8q16 0 39 4q-47 -256 -66 -461q0 -10 33 -10q8 -1 16 -1q26 0 55 7q106 20 109 62q18 213 68 462q2 0 30.5 6.5t48.5 10.5l111 12q-70 -324 -82 -555q0 -12 35 -12q8 -1 16 -1q26 0 56 7q106 20 108 63q12 244 72 510q53 10 88 33q25 14 20 31 q-2 14 -32 14q-8 0 -27.5 1t-32.5 1q29 121 99 385q15 57 44 151t43 148.5t14 91.5q0 20 -39 20q-20 0 -48 -5q-47 -10 -82 -27q-40 -18 -43 -31q-2 -10 -96 -372q-78 -301 -94 -375q-86 -10 -195 -35q43 205 90 399q15 63 42 162.5t39 154t12 89.5q0 19 -36 18 q-20 0 -51 -6q-53 -12 -80 -24q-41 -18 -45 -33l-94 -410q-59 -252 -92 -409q-6 -2 -11 -4l-8.5 -3.5t-5.5 -1.5q-35 -14 -47 -22q-24 -14 -24 -26q0 -7 8 -11z" />
<glyph unicode="I" horiz-adv-x="362" d="M-86 121q0 -14 33 -15q8 -1 16 0q27 0 57 7q106 20 107 63q0 31 25 133q16 53 34 154l64 311q22 114 55.5 257.5t51 227.5t17.5 132q0 20 -38 20q-20 0 -49 -6q-49 -10 -82 -27q-39 -18 -43 -32q-45 -190 -127 -623q-16 -92 -64 -313q-57 -266 -57 -289z" />
<glyph unicode="J" horiz-adv-x="409" d="M-426 -78q-15 -43 -15 -91.5t15 -100.5q29 -100 133 -101h9q132 0 237 86q49 39 98 133q72 133 131 355q25 92 60 325q125 760 137 1104q0 12 -33 15q-37 0 -72 -9q-109 -23 -108 -61q-10 -285 -68 -678l-96 -620q-47 -188 -88 -306q-37 -98 -78 -176q-16 -29 -33 -51 q-8 16 -12 27q-23 56 -23 107q0 41 15 79q2 5 2 9q0 17 -36 17q-20 0 -50 -5q-111 -21 -125 -58z" />
<glyph unicode="K" horiz-adv-x="751" d="M-98 129q0 -10 32 -12q37 0 72 8q109 23 111 61q3 43 67 326q43 -80 86 -213q57 -185 58 -328v-14q0 -12 34 -12q8 -1 16 -1q24 0 56 7q109 23 109 63v14q0 139 -58 326q-55 178 -139 301q186 186 326 371q188 250 225 447q3 12 -6 18t-29 6t-51 -6q-53 -12 -80 -25 q-43 -20 -45 -32q-37 -193 -217 -437q-92 -127 -246 -286q8 49 15.5 78.5t7.5 35.5q78 397 194 561q8 10 0 15.5t-30.5 7.5t-53.5 -2q-98 -18 -127 -59q-119 -168 -196 -574l-20.5 -104.5t-17.5 -84t-12.5 -57t-7.5 -38t-2 -13.5q-67 -297 -71 -348z" />
<glyph unicode="L" horiz-adv-x="428" d="M-123 -8q0 -13 31 -13q22 0 61 7q57 -15 164 -15h41q88 2 152 41q25 16 22.5 30.5t-35.5 14.5h-25q-129 0 -192 27q123 659 289 1327q3 13 -6 19.5t-31 6.5q-20 0 -49 -5q-57 -12 -82 -25q-39 -18 -43 -35q-174 -700 -291 -1333q-6 -6 -6 -13q0 -5 4 -10l-1 -4 q-1 -4 -1 -8q0 -2 -1 -6t-1 -6z" />
<glyph unicode="M" horiz-adv-x="1087" d="M-152 84q0 -12 30 -12q10 0 24 2q31 2 61 10q94 25 98 59q57 469 232 904q8 -162 8 -312q0 -242 -10 -315q-29 -197 -29 -311q0 -17 31 -18q25 0 69 11q98 25 111 54q72 156 176 438q115 315 168 440q1 -26 1 -54q0 -163 -30 -413q-41 -326 -53 -467q0 -12 31 -12 q33 0 74 6q106 20 108 64q8 92 35 309q28 221 37 307q12 132 12 249q0 208 -39 370q-4 14 -35 14q-21 0 -53 -6q-100 -18 -125 -58q-127 -215 -266 -579v14q0 170 -22 629q0 10 -35 14q-11 8 -34 8q-19 0 -48 -6q-104 -18 -125 -57q-402 -732 -402 -1282z" />
<glyph unicode="N" horiz-adv-x="800" d="M-88 121q0 -16 53 -10q31 2 62 10q94 25 98 59q23 188 111 602q4 -29 4 -32l59 -342q39 -227 70 -316q7 -17 42 -17q7 0 15 1q43 2 96 22q84 25 90 60q114 826 301 1431l2 8q0 17 -33 17q-20 0 -53 -6q-55 -10 -81 -25q-41 -18 -46 -33q-125 -399 -219 -915l-28 172 q-49 293 -52 315q-22 187 -49 246q0 2 -2 4v2q4 26 -38 26q-19 0 -48 -5q-47 -10 -80 -27q-43 -20 -45 -33q-35 -203 -121 -604l-37 -173l-37.5 -175.5t-22.5 -133t-11 -128.5z" />
<glyph unicode="O" horiz-adv-x="663" d="M-63 264q6 -123 59 -176q29 -29 90 -31h9q76 0 192 47q98 39 176 158q70 111 115 305q31 131 49 293q23 188 22 303q-4 197 -84 267q-11 9 -34 9q-36 0 -105 -24q-74 -27 -70 -49q-35 -12 -61 -35q-143 -113 -242 -379q-82 -223 -108 -481q-9 -83 -9 -162q0 -23 1 -45z M150 395q2 240 88 520q74 236 176 361q10 -27 16 -88q4 -41 4 -93q0 -63 -6 -139q-20 -236 -55 -399q-61 -287 -174 -397q-16 20 -25 37q-25 55 -25 171q1 13 1 27z" />
<glyph unicode="P" horiz-adv-x="794" d="M-102 117q0 -12 32.5 -12.5t71.5 6.5q109 23 111 61q8 72 71 295q0 4 8.5 30.5t12.5 43.5q29 -5 62 -5q70 0 155 21q248 57 371 317q67 144 67 278q0 93 -33 179q-43 115 -147 176q-92 55 -225 60h-15q-139 0 -317 -54q-53 -14 -79 -30.5t-21 -30.5q5 -17 35 -17 q29 0 81 15q18 6 56 14q4 0 8 2q6 2 10 2q4 2 10 2t8 3q4 2 12.5 3t12.5 1q6 0 16 2q2 0 12.5 1t16.5 1h14q106 0 189 -58q86 -63 121 -186q19 -71 18 -141q0 -42 -6 -84q-37 -254 -211 -377q-6 -4 -14 -10h-2l-2 -1l-2 -1l-9 -2q-18 0 -26 2q-98 16 -111 118q0 10 -14 13 q0 4 2 12q0 4 1 7l1 3q78 451 127 613q1 4 1 7q0 19 -37 19q-20 0 -50 -6q-55 -10 -82 -25q-37 -16 -43 -32q-46 -151 -129 -627q-33 -197 -68 -309q-65 -233 -71 -299z" />
<glyph unicode="Q" horiz-adv-x="751" d="M-76 408q-10 -66 -10 -118q0 -57 12 -93q33 -96 158 -97q26 0 57 4q63 -201 99 -260q51 -88 114 -125q57 -33 146 -33q46 0 102 9q105 17 105 48q0 25 -49 24q-21 0 -52 -5q-2 -2 -8 0q0 -2 2 -2q-6 3 -18 7q-27 10 -56 32q-45 37 -90 127q-20 39 -92 262q57 45 109 117 q78 106 153 299q74 190 99 354q16 94 15 177q0 77 -13 143q-31 133 -121 190q-20 12 -55 12.5t-85 -12.5q-33 -10 -49 -18q-20 -10 -25 -19.5t5 -15.5l1 -1l3 -3q-37 -10 -53 -20q-162 -92 -262 -347q-70 -180 -115 -454q-7 -35 -27 -182zM135 272q-3 16 -3 41q0 58 15 168 q31 236 78 418q74 272 195 414q16 16 29 26q33 -57 45 -133q8 -52 8 -111q0 -98 -23 -216q-72 -381 -268 -629q-2 -2 -5 -7t-5 -7q-23 -4 -49 -17q-13 26 -17 53z" />
<glyph unicode="R" horiz-adv-x="772" d="M-75 131q0 -18 35 -18q20 0 50 6q55 10 82 24q41 18 45 33l58 264h2q6 -8 12 -15t33.5 -42l68.5 -86q195 -240 305 -324q14 -10 39 -9q38 0 101 22q29 10 47 22q24 14 24 25q0 6 -8 12q-108 80 -332 356q-102 125 -114 138q66 29 131 79q175 138 227 308q20 64 20 125 q0 52 -14 102q-31 113 -123 193q-131 113 -325 113q-75 0 -160 -17q-6 -2 -22.5 -6l-24.5 -6q-108 -28 -98 -62q4 -15 32 -15q26 0 80 13q6 2 17 2h12q-4 -81 -36 -225t-68 -283.5t-66 -341t-30 -387.5zM96 1366h2h-2zM229 606q80 397 103 721q47 -25 74 -47 q74 -57 108 -154q23 -63 23 -128q0 -30 -5 -60q-20 -133 -153 -272q-41 -41 -64 -60l-16 -12q-31 12 -70 12z" />
<glyph unicode="S" horiz-adv-x="782" d="M-76 274q-4 -15 -3 -31q0 -35 16 -81q41 -109 165 -146q43 -12 93 -12q100 0 225 49q147 59 229 164q57 74 70 148q3 19 3 36q0 64 -44 111q-39 39 -123 70l-68 22q-57 20 -61 23q-76 31 -119 69q-45 45 -59 148q-5 35 -5 70q0 177 115 366q63 102 136 152l20 12q0 2 6 4 l4 2h2q-16 -4 -20 -4h4q4 0 9 -3t9 -3l2 -1q2 -1 6.5 -4t8.5 -5q4 -4 9 -8.5t7 -6.5q16 -20 27 -57q12 -37 11 -89q0 -28 -3 -63q-18 -193 -102 -332q-6 -10 2 -16t30 -6q31 -4 54 2q100 18 125 57q66 115 96 287q11 68 11 122q0 110 -48 167q-38 44 -130 44q-11 0 -24 -1 q-139 -10 -268 -84q-180 -104 -270 -365q-45 -129 -45 -233t45 -182q43 -74 243 -146q84 -29 113 -45q66 -37 78 -90q3 -12 3 -27q0 -49 -40 -129q-25 -47 -68 -88q-25 -20 -39 -30q-4 -2 -7 -4.5t-5 -3.5l-2 -1q-12 -8 -18 -10l6 3q-1 0 -10 -3q4 0 10 2q-2 0 -6 -1t-6 -1 h-17q-8 0 -28 6q-53 12 -97 62q-35 41 -45 102q-5 22 -5 40q0 39 24 56q29 23 26 31q-4 16 -39 17h-11q-79 0 -138 -41q-58 -44 -70 -91z" />
<glyph unicode="T" horiz-adv-x="520" d="M-141 1294q3 -15 36 -15q28 0 76 11q0 2 2 2h4q6 2 14.5 3t20.5 3q4 0 24.5 3.5t33.5 5.5q33 4 90 8q-209 -688 -266 -1202q0 -8 32 -11q33 0 72 7q109 23 111 61q55 500 247 1139q70 -6 133 -19q14 -3 30 -3q52 0 120 32q22 9 37 24q8 8 8 16q0 10 -18 13 q-141 29 -287 31q-8 10 -33 10q-19 0 -51 -6l-31 -6q-143 -8 -307 -45q-107 -25 -98 -62z" />
<glyph unicode="U" horiz-adv-x="702" d="M-31 201q16 -49 43 -70q23 -19 70 -19q27 0 59 7q147 29 281 176q168 186 233 493q20 113 43 299q7 70 15.5 142l13 109.5t4.5 51.5t-32 14q-9 0 -21 -1q-31 -2 -62 -10q-92 -25 -98 -62q-10 -61 -31 -274q-20 -186 -38 -279q-57 -313 -220 -499q-10 -10 -20 -22.5 t-19 -20.5q-37 74 -43 251q-1 14 0 29q0 212 127 531q80 197 123 319l2 8q0 17 -33 17q-20 0 -53 -7q-115 -23 -127 -57q-18 -51 -104 -272q-66 -166 -98 -279q-53 -175 -53 -329q0 -131 38 -246z" />
<glyph unicode="V" horiz-adv-x="702" d="M78 143q0 -16 36 -15q21 0 52 5q78 14 117 47q178 158 311 545q39 117 92 311q66 236 66 337q0 19 -2 32q-3 19 -37 19q-27 0 -76 -13q-101 -26 -101 -58q0 -10 3 -31.5t3 -33.5q0 -53 -16 -119q-18 -68 -24 -86l-27 -86l-90 -301q-49 -147 -94 -245q3 811 3 829 q0 93 -1 117q0 14 -35 14q-8 1 -16 1q-25 0 -58 -7q-106 -20 -106 -66q6 -147 6 -348q0 -117 -2 -250q-5 -341 -5 -488q0 -66 1 -110z" />
<glyph unicode="W" horiz-adv-x="1220" d="M84 842q-4 -96 -4 -181q0 -356 74 -526q7 -14 35 -14q19 0 51 6q84 16 116 45q168 162 281 412q6 -227 18 -418q2 -18 35 -18q14 0 33 4q41 6 76 18q135 45 243 236q96 164 150 317q55 150 94 424q25 163 25 239q0 102 -35 232q-5 19 -38 19q-28 0 -79 -13 q-97 -25 -97 -58q0 -39 16 -110.5t18 -99.5v-25q0 -82 -17 -203q-31 -227 -84 -397q-45 -143 -131 -305l-6 -12q-10 207 -10 1011q0 12 -33 17q-25 0 -72 -10q-104 -20 -110 -64q-57 -395 -141 -647q-76 -221 -175 -375q-27 114 -26 314q0 96 6 212q0 33 6 291q2 176 64 269 q6 10 -2.5 15t-30.5 7q-25 0 -53 -4q-100 -18 -125 -57q-57 -84 -66 -254q-4 -70 -4 -150v-84t-2 -63zM715 213h2h-2z" />
<glyph unicode="X" horiz-adv-x="649" d="M-193 150q15 -9 41 -10q41 0 109 24q53 18 84 51q39 41 96 139l92 160q74 -264 156 -393q10 -18 41 -18t86 18q45 18 66 31q29 18 22 26q-82 127 -160 402q-37 135 -55 272q10 29 23.5 63.5l21.5 56t14 34.5q109 262 215 358q29 25 37 29l6 2l3 2q95 25 94 54 q0 21 -35 21q-28 0 -80 -14q-215 -59 -344 -272q-2 -2 -2 -4l-2 -2l-12 43q-49 182 -144 227q-15 8 -38 8q-37 0 -99 -22q-29 -12 -47 -25q-41 -25 -19 -35q90 -41 136 -219q31 -117 55 -338l2 -12q-9 -22 -12 -31q-55 -145 -133 -287q-74 -133 -91 -159l-47 -76l-10 -15.5 t-12 -17.5q-8 -16 -17 -22q-48 -23 -47 -39q-1 -5 6 -10z" />
<glyph unicode="Y" horiz-adv-x="776" d="M2 856q-2 -29 -2 -55q0 -137 63 -203q41 -45 130 -47q29 0 43 2q-2 -15 -24 -78.5t-41.5 -152t-19.5 -175.5q0 -20 36 -20q19 0 49 6q55 10 81 25q43 20 45 32q78 307 89 416l6 2q231 98 321 424q49 176 49 344q0 89 -14 176q-3 18 -36 18q-26 0 -77 -11 q-101 -23 -100 -60q0 -27 6.5 -83.5t6.5 -86.5q0 -105 -19 -217q-41 -240 -150 -383q-20 -29 -59 -61q-9 -9 -25 -19q-4 -2 -12 -8q-4 0 -10 -1t-10 -3l-2 2h-2q-4 0 -15 2q-4 0 -6 2h-4q-86 41 -86 219q0 200 141 621q1 4 2 7q0 19 -37 19q-20 0 -51 -6q-113 -20 -125 -57 q-125 -377 -141 -590z" />
<glyph unicode="Z" horiz-adv-x="632" d="M-242 154q-2 -4 -2 -8q0 -17 39 -17h11q61 0 290 29q68 8 118 8q82 0 118 -23q15 -10 39 -9q37 0 98 22q33 12 47 22q41 25 19 37q-61 39 -190 39q-52 0 -116 -6q-33 -2 -112 -25q-12 0 -27 -2q-6 -2 -18.5 -3t-18.5 -1q-4 -2 -10 -2q125 223 418 623q301 412 403 622 q2 5 3 8q0 10 -21 15q-135 17 -253 17q-85 0 -163 -9q-246 -25 -403 -121q-25 -16 -23 -30.5t35 -14.5h10q72 0 139 41q6 4 15 8q2 2 6 4t8 2l14 4l2 2q12 4 17 5q2 2 8 2q6 2 10 2q20 4 33 6q4 0 14.5 2l21.5 4t21 2q49 5 98 5q65 0 128 -9q-111 -217 -410 -625 q-305 -415 -416 -626z" />
<glyph unicode="[" horiz-adv-x="757" />
<glyph unicode="\" horiz-adv-x="567" />
<glyph unicode="]" horiz-adv-x="757" />
<glyph unicode="^" />
<glyph unicode="_" horiz-adv-x="1024" />
<glyph unicode="`" horiz-adv-x="1024" />
<glyph unicode="a" horiz-adv-x="692" d="M-100 362q4 -147 73 -192q20 -13 61 -13q25 0 60 5q88 12 152 59q43 29 80 70q-12 -82 -19 -158q0 -8 33 -10q45 0 72 6q106 20 108 64q12 176 103 552q53 127 59 261q0 15 -33 15q-14 0 -35 -3q-2 88 -57 112q-32 14 -73 14q-68 0 -162 -38q-207 -82 -293 -240 q-130 -239 -130 -472q0 -16 1 -32zM121 553q18 121 76 262q14 35 51 105q20 37 43 59q4 4 59 49l2 2q2 0 6 4q2 2 6.5 5t10.5 8h2q26 -20 25 -86q0 -13 -1 -29q0 -14 38 -14q11 0 24 2q-4 -25 -11.5 -55.5l-18.5 -78t-19 -77.5q-59 -137 -189 -312q-63 -88 -84 -110l-12 24 q-17 51 -17 124q0 53 9 118z" />
<glyph unicode="b" horiz-adv-x="667" d="M-90 143q29 -35 92 -41q14 -1 27 -1q122 0 258 100q147 109 268 334q96 178 96 322q0 81 -30 151q-39 92 -132 118q-34 9 -73 10q-54 0 -111 -18l51 215l21 82q12 43 20 82q24 97 24 138q0 9 -1 16q-3 17 -38 17q-27 0 -75 -11q-101 -23 -100 -60q0 -3 0.5 -8.5t0.5 -9.5 q0 -39 -24 -133l-22 -88q-16 -61 -23 -90q-41 -174 -76 -346q-16 -80 -83 -340q-20 -82 -37 -164q-6 -29 -13 -78q-4 -25 -7 -47.5t-5 -31.5l-2 -9q-17 -44 -17 -73q0 -24 11 -36zM113 258l20 57q8 125 68 344q45 174 80 342l1 4q1 3 1 7q29 12 45 26l1 2l3 2q37 -18 67 -71 q38 -67 38 -155q0 -47 -11 -101q-25 -117 -104 -258q-25 -43 -68 -107q-6 -8 -10 -14t-11.5 -14.5t-15.5 -18.5q-6 -6 -10 -11t-6 -8l-2 -3q-23 -27 -60 -62q-4 -2 -10 -8l-8 -8v2q-14 12 -14 28q0 11 6 25z" />
<glyph unicode="c" horiz-adv-x="677" d="M-66 645q-17 -108 -17 -196q0 -152 50 -246q46 -88 156 -88q58 0 135 24q154 49 246 205q6 10 -2 15.5t-31 7.5q-37 0 -53 -5q-100 -18 -125 -57q-27 -43 -60 -80q-2 -2 -6 -5t-8 -7q-25 16 -47 61q-39 76 -41 218v23q0 93 21 206q20 117 71 221q53 104 121 150l2 2 l12 -7q25 -12 41 -26q61 -55 62 -162q0 -76 -53 -139q-23 -23 4 -33q16 -6 45 -2q106 8 143 51q72 82 72 185q0 97 -68 167q-52 52 -148 53q-31 0 -67 -5q-154 -25 -266 -125q-142 -127 -189 -406zM365 1104l2 2z" />
<glyph unicode="d" horiz-adv-x="710" d="M-61 295q31 -125 135 -176q53 -28 118 -28q75 0 166 38q6 0 20.5 3t20.5 3q57 12 82 25q41 23 43 33q227 1188 297 1415q1 4 2 7q0 19 -38 19q-20 0 -50 -6q-55 -10 -82 -24q-41 -18 -43 -33q-55 -174 -106 -416q-29 10 -62 10q-13 0 -26 -2q-113 -12 -199 -63 q-164 -94 -248 -373q-48 -161 -48 -289q1 -77 18 -143zM150 358q-15 57 -15 128q0 102 31 235q55 219 153 323q12 12 21 19l4 -4q51 -45 64 -176q0 -14 36 -15l-59 -319l-55 -320q-37 -18 -49 -34q0 -2 -5 -7q-8 4 -24 17q-75 47 -102 153z" />
<glyph unicode="e" horiz-adv-x="624" d="M-76 307q0 -168 105 -192q19 -5 42 -5q55 0 146 29q74 25 141 80q142 119 142 232q0 21 -39 21q-19 0 -47 -5q-45 -8 -80 -27q-43 -20 -45 -32q-16 -84 -76 -160q-10 -10 -37 -35q-20 20 -31 61q-10 39 -9 105q0 26 1 55q6 94 23 180q31 4 123 4h123q35 0 83 19 q61 22 68 43q48 140 49 253q0 18 -2 36q-6 90 -53 137q-37 37 -115 37q-37 0 -84 -8q-129 -25 -211 -103q-55 -52 -98 -147q-66 -115 -100 -344q-19 -133 -19 -234zM135 182h4h-4zM172 684q4 23 14.5 59.5t12.5 49.5q31 82 67 155q20 41 43 72q12 16 21 24l2 3q2 -2 10 -7 q40 -31 49 -122q3 -18 3 -40q0 -69 -29 -180q-123 -4 -193 -14zM358 1069v2v-2z" />
<glyph unicode="f" horiz-adv-x="428" d="M-125 1085q-2 -4 -1 -6q0 -16 36 -16q27 0 51 6q59 14 137 21q-47 -162 -80 -349q-72 -418 -72 -592q0 -14 1 -26q0 -12 33 -12q29 0 73 10q104 25 105 65q-1 13 -1 27q0 152 60 520q25 162 78 361q16 0 115 -4l67.5 -4.5t48.5 -2.5h9q73 0 141 47q23 18 20 29 q-6 16 -34 17q-268 6 -343 6q70 227 150 344l2 4q2 4 4 6q16 -23 41 -90q7 -18 40 -18q29 0 77 14q95 30 95 60q0 4 -1 7q-41 121 -113 146q-14 5 -34 5q-36 0 -101 -18q-71 -22 -123 -61q-141 -106 -206 -324q-18 -63 -27 -90q-78 -12 -125 -20q-105 -22 -123 -62z" />
<glyph unicode="g" horiz-adv-x="757" d="M-127 -283q18 -57 84 -88q59 -27 123 -26q160 2 291 121q66 59 118 178q39 90 82 288q33 158 56 345q47 258 53 303q63 188 76 309v4l1 2l1 2q0 13 -29 13q-6 0 -12 -1q-45 -6 -47 -6q-49 -10 -86 -28q-20 6 -48 6q-38 0 -85 -13q-166 -41 -293 -186q-233 -252 -240 -555 v-21q0 -122 66 -194q61 -64 150 -64q17 0 36 3q98 12 203 75q-12 -70 -49 -209q-31 -113 -74 -188q-18 -33 -51 -74l-5 -4l-10 -8q-2 0 -26 10q-55 25 -76 76q-5 14 -6 37q0 58 33 172q1 4 1 7q0 15 -29 15q-21 0 -58 -8q-109 -25 -121 -63q-34 -124 -34 -189q0 -25 5 -41z M127 446v19q0 125 78 278q76 172 211 291q2 -2 5 -4t5 -2q12 -10 33 -53q10 -18 47 -17q-37 -160 -90 -540q-39 -74 -80 -127q-40 -49 -80 -80l-3 -2q-3 -2 -5 -4q-70 16 -103 106q-19 48 -18 116v19z" />
<glyph unicode="h" horiz-adv-x="757" d="M-66 127q0 -13 27 -12q24 0 72 10q100 20 114 51q9 22 86 246q86 248 140 364q72 162 129 232q6 -18 10 -86v-16q0 -92 -31 -291q-10 -70 -63 -240q-49 -160 -49 -242q0 -12 32 -14q35 0 74 8q106 20 107 64q0 66 75 309q22 71 43 203q14 84 23 182q3 41 3 75 q0 62 -11 101q-20 71 -110 71q-19 0 -42 -3q-102 -16 -176 -66q-55 -37 -106 -108q84 375 159 673q1 3 1 7q0 20 -36 20q-19 0 -49 -6q-47 -10 -82 -27q-40 -18 -43 -30l-62 -242l-63 -247.5l-53 -216t-50 -224.5l-34.5 -189t-27 -194t-7.5 -162z" />
<glyph unicode="i" horiz-adv-x="378" d="M-84 147q3 -19 37 -18q27 0 76 12q101 26 100 60q0 3 -0.5 9t-0.5 10q0 48 42 186q8 25 66 231q7 28 41.5 145.5t49.5 191t15 138.5q0 20 -35 21q-20 0 -51 -7q-55 -10 -82 -24q-39 -18 -43 -33q-37 -199 -106 -471l-66 -231q-44 -149 -44 -204q0 -10 1 -16zM106 1362 q35 -23 72 -59q7 -7 36 -7h19q39 2 82 19q72 24 72 46q0 7 -6 13q-33 33 -74 60q-12 7 -35 7q-8 0 -18 -1q-35 -2 -84 -21q-33 -12 -47 -22q-24 -14 -24 -25q-1 -6 7 -10z" />
<glyph unicode="j" horiz-adv-x="362" d="M-559 -111q-13 -56 -14 -98q0 -58 26 -98q45 -70 152 -70q158 4 282 94q76 55 146 193q94 184 157 516q90 494 101 532q20 80 53 162q4 10 -4 17.5t-29 7.5q-33 0 -51 -4q-111 -20 -125 -58q-61 -147 -117 -471q-70 -391 -112 -532q-41 -131 -99 -238q-33 -61 -63 -96 q-10 -12 -37 -35q-4 -4 -10 -8q-4 -4 -6 -4l18 6l25 4h-4h-4q-31 8 -54 33q-33 33 -32 95q0 13 6.5 46t6.5 51q0 20 -38 20q-20 0 -49 -5q-47 -10 -80 -27q-43 -21 -45 -33zM184 1366q-2 -4 -2 -7q0 -5 6 -9l7 -7l-7 7q2 -2 19 -27q12 -18 20 -27q2 -2 7.5 -2t7.5 -2 q20 -3 28 -3q6 0 13 1q39 2 82 19q47 18 61 32q0 2 2 5q4 4 4 6q2 3 2 6q0 6 -6 10q-2 0 -2 2t-2 4l4 -6q-2 2 -18 27q-12 18 -21 26l-12 4q-20 3 -29 3q-6 0 -12 -1q-41 -4 -84 -18q-43 -16 -59 -33l-4 -4q-3 -4 -5 -6z" />
<glyph unicode="k" horiz-adv-x="677" d="M-139 147q0 -10 33 -12q47 0 73 6q109 23 109 64q6 106 57 276q59 -119 137 -346q84 -244 142 -344q12 -20 46 -20q31 0 79 16q43 16 67 33q27 18 23 28q-59 104 -158 388q-86 252 -166 380q14 6 47 19q100 41 205 139q92 89 117 160q19 52 18 90q0 31 -12 53 q-27 47 -117 51q-6 0 -12 1q-92 0 -213 -44q-37 -12 -74 -30l47 243q12 61 37 160q7 29 19 69.5t17.5 62.5t5.5 36q0 19 -35 19q-20 0 -52 -7q-57 -12 -82 -24q-39 -18 -43 -33l-41 -160q-29 -117 -37 -159q-14 -63 -37 -189q-35 -182 -34 -186q-9 -9 -7 -6q-4 -4 -10 -13.5 t-8 -13.5q-8 -12 12 -18q-39 -193 -73 -334q-78 -308 -80 -355zM188 715q0 4 48 235v2h2q20 25 49 47q12 10 47 31q12 8 22 14l9 4q8 3 14 7l3 2q3 2 7 4l12 4q2 0 5.5 1t5.5 3q0 -2 2 -2t6 1t8 3h2q14 -2 31 -16q16 -16 16 -49q0 -16 -4 -37q-12 -66 -63 -129 q-45 -59 -119 -113q-16 -12 -29 -18h-2q-20 9 -43 9q-14 0 -29 -3z" />
<glyph unicode="l" horiz-adv-x="366" d="M-103 121q0 -19 35 -19q20 0 52 7q53 12 79 24q41 18 46 33l182 813l111.5 499.5t29.5 143.5q2 5 2 9q0 16 -33 16q-20 0 -53 -7q-113 -23 -127 -57q-102 -274 -186 -721l-73 -386l-51.5 -272t-13.5 -83z" />
<glyph unicode="m" horiz-adv-x="1044" d="M-125 119q0 -14 33 -14q21 0 53 6q47 10 82 26q41 18 45 33q14 80 59 225q68 223 123 355q74 178 150 282q3 -14 3 -34q0 -41 -13 -117q-14 -68 -43 -189q-16 -84 -64 -385q-4 -14 -14 -59q-10 -41 -15 -96v-2q0 -13 33 -13q26 0 68 8q102 20 110 54q18 76 29 149 q12 37 53 135q84 195 97 230q45 129 90 215q25 45 57 86v4q5 -20 5 -48q0 -11 -1 -24q-6 -96 -59 -311q-61 -233 -76 -313q-6 -40 -18 -148q-9 -95 -25 -147q-1 -3 -1 -6q0 -19 35 -19q20 0 52 6q57 12 82 25q41 18 43 33q14 53 26 159q10 102 23 160q0 -2 7 28.5l30.5 127 l46.5 186.5q49 197 49 300v11q0 47 -24 76q-24 24 -80 24q-12 0 -25 -1q-158 -14 -266 -123q1 11 1 23q0 30 -5 57q-13 74 -104 74q-16 0 -33 -3q-94 -12 -172 -57q-22 -12 -43 -31q2 20 2 62q0 12 -33 12q-8 1 -16 1q-25 0 -58 -7q-106 -20 -106 -64q0 -178 -82 -483 l-18 -62q-93 -340 -93 -417z" />
<glyph unicode="n" horiz-adv-x="788" d="M-78 125q0 -13 26 -12q24 0 72 10q100 20 113 53q119 324 197 483q70 141 141 230q12 14 41 43q11 -49 11 -121q0 -133 -38 -340q-78 -442 -127 -614q-1 -3 0 -6q0 -19 35 -19q20 0 51 6q57 12 82 25q39 18 43 33q47 166 129 624q31 168 37 281q2 30 2 57q0 119 -32 199 q-6 16 -39 16q-19 0 -48 -6q-178 -35 -296 -147q-18 -16 -52 -58q29 129 52 262q2 14 -31 14q-11 0 -25 -1q-31 -2 -61 -11q-92 -25 -99 -59q-20 -141 -100 -469q-84 -348 -84 -473z" />
<glyph unicode="o" horiz-adv-x="649" d="M-96 254q12 -135 106 -148q22 -3 45 -3q66 0 140 28q90 33 157 100q104 104 170 297q52 152 53 289q0 21 -2 41q-12 205 -149 281q-16 8 -40 8q-38 0 -97 -21q-41 -12 -62 -32q-45 -12 -71 -31q-70 -49 -131 -195q-58 -141 -93 -313q-29 -147 -29 -243q0 -31 3 -58z M123 279q-9 44 -9 99q0 143 58 347q34 123 80 221q29 57 35 68q63 -78 69 -226q1 -17 1 -34q0 -169 -81 -353q-37 -84 -92 -157q-20 -25 -32 -37q-21 27 -29 72z" />
<glyph unicode="p" horiz-adv-x="722" d="M-234 -324q0 -20 35 -20q19 0 49 6q55 10 82 25q43 23 45 32q20 109 82 385q36 -16 75 -15q11 0 24 1q127 12 211 86t163 275q59 147 103 348q21 99 21 170q0 60 -15 98q-32 78 -157 78h-19q-94 -2 -189 -53q0 1 2 4q2 5 3 10q2 6 2 14v5q0 22 -39 21q-19 0 -47 -5 q-47 -10 -80 -27q-41 -18 -45 -31q-16 -96 -64 -321l-31 -68q-6 -14 13 -20q-4 -20 -9.5 -44t-14.5 -59.5l-34.5 -142l-58.5 -250.5q-13 -54 -45.5 -175.5t-47 -195t-14.5 -131.5zM78 184l141 613q47 94 72 133q35 55 65 90l33 33q18 -12 21 -15q27 -23 32 -94q1 -10 1 -21 q0 -35 -7 -81q-18 -145 -78 -324q-61 -193 -143 -311q-10 6 -27 6q-34 0 -102 -25q-4 0 -8 -4z" />
<glyph unicode="q" horiz-adv-x="667" d="M-135 358q-7 -42 -7 -77q0 -103 62 -148q50 -34 129 -33h25q98 6 186 54q-10 -47 -37 -164t-40 -193.5t-13 -141.5q0 -19 34 -19q19 0 50 6q55 10 82 24q41 18 45 33q63 385 197 993l23 73.5t31.5 104.5t24 114t11.5 131q0 19 -35 19q-15 0 -37 -4q2 18 -41 18 q-19 0 -45 -3q-274 -39 -518 -465q-102 -181 -127 -322zM78 276q-7 26 -7 58q0 65 29 160q40 126 129 270q80 129 168 223q29 29 45 43l9 8l-80 -372q-43 -152 -88 -256q-33 -84 -84 -158q-23 -33 -43 -51l-9 -8q-2 0 -14 6q-39 20 -55 77zM115 170q2 0 6 2z" />
<glyph unicode="r" horiz-adv-x="571" d="M-117 147q-2 -15 33 -14q26 0 68 8q104 20 112 54q20 76 68 342q72 217 217 391q2 -12 2 -26q0 -23 -6 -54q-12 -74 -62 -166q-37 -72 -75 -107q-23 -18 6 -28q25 -6 45 -4q96 10 143 51q49 43 96 133q47 92 64 191q3 19 3 35q0 72 -52 102q-24 13 -61 12q-34 0 -83 -10 q-74 -18 -133 -64l-2 -2q5 33 5 67q0 26 -3 50q-2 12 -35 14q-37 0 -75 -8q-52 -12 -77.5 -27t-25.5 -34q0 -3 0.5 -9.5t0.5 -10.5q0 -89 -74 -390q-8 -33 -29 -137q-55 -168 -70 -348v-11z" />
<glyph unicode="s" horiz-adv-x="636" d="M-82 391q-29 -48 -29 -94q0 -53 39 -102q70 -86 199 -95q15 -1 30 -1q145 0 287 106q78 61 79 150q0 7 -1 14q-6 72 -73 174l-123 166q-66 94 -72 161q-1 12 -1 24q0 91 64 153l11 8l6 6q2 0 4 2t4 2q-18 -10 -43 -14h-2l2 -2q63 -2 88 -54q7 -15 7 -35q0 -64 -75 -169 q-8 -10 0.5 -15.5t32.5 -7.5q23 -2 54 2q98 18 124 57q78 111 78 191q0 64 -65 92q-45 20 -115 25h-22q-128 0 -230 -68q-119 -78 -135 -213q-1 -12 -1 -24q0 -74 52 -154q6 -10 60 -80q57 -72 59 -76q95 -132 95 -222q0 -64 -48 -105q-16 -12 -29 -19q23 8 31 10l-2 2 q-40 3 -92 43q-47 35 -57 95q-2 14 -3 26q0 41 23 80q6 10 -1 15.5t-30 7.5q-37 0 -53 -4q-107 -19 -127 -58z" />
<glyph unicode="t" horiz-adv-x="579" d="M-45 1032q86 0 166 2q-51 -180 -76 -307q-6 -37 -20 -137l-21 -139q-10 -61 -9 -113q0 -84 25 -143q39 -90 123 -91q150 0 246 97q129 131 150 313q0 10 -33 10q-8 1 -16 1q-26 0 -56 -7q-104 -18 -110 -61q-12 -102 -86 -217q-23 45 -29 110q-1 13 -1 29q0 67 21 192 q6 49 21 140q12 84 24 137q20 98 45 186q16 0 42 -1t36 -1h10q74 0 142 41q23 14 23 28q0 2 -1 3q-2 10 -34 14q-106 4 -193 4q41 125 96 277q2 5 2 8q0 16 -34 16q-21 0 -54 -6q-111 -20 -125 -57l-84 -242h-51q-86 0 -151 -41q-23 -14 -23 -25q0 -20 35 -20z" />
<glyph unicode="u" horiz-adv-x="735" d="M-90 143q8 -14 18 -14q21 -3 42 -2q130 0 245 100q88 78 188 250q2 2 23 41q-9 -41 -35.5 -126.5t-43 -156.5t-16.5 -128q0 -20 38 -20q20 0 49 5q47 10 80 27q41 18 45 33q92 386 136 608.5t44 349.5q0 13 -26 12q-24 0 -72 -10q-100 -20 -113 -53q-39 -109 -281 -549 q-68 -125 -104 -178q23 430 225 774q6 10 -2 15t-31 7q-37 0 -53 -4q-104 -18 -125 -57q-232 -395 -232 -865q0 -30 1 -59z" />
<glyph unicode="v" horiz-adv-x="632" d="M43 584q8 -313 8 -453q0 -14 30 -14q20 0 56 6q92 16 117 47q76 88 221 412q8 18 242 518q2 4 2 7q0 15 -35 15t-51 -4q-109 -18 -127 -57l-232 -498q-10 -20 -16 -35q-5 190 -5 331.5t5 232.5q0 12 -31 12q-8 1 -16 1q-27 0 -57 -7q-106 -20 -109 -64q-5 -92 -5 -221 q0 -99 3 -229z" />
<glyph unicode="w" horiz-adv-x="1005" d="M8 582q-13 -139 -12 -251q0 -128 16 -218q4 -16 37 -16q19 0 49 5q96 18 125 60q84 115 162 260v-29q-6 -183 -6 -246q0 -40 2 -49q2 -14 35 -14q11 0 24 2q76 6 129 39q203 123 326 461q85 234 85 417q0 72 -13 136q-3 19 -37 18q-27 0 -76 -12q-101 -26 -101 -60 q0 -20 6.5 -64t6.5 -68q0 -172 -78 -396q-45 -129 -96 -215q6 84 6 96q2 27 2 240q-1 47 -1 86q0 118 7 176q5 15 20 55.5t23 64.5t16 57t8 58q0 18 -35 18q-22 0 -58 -7q-100 -20 -119 -53q-52 -92 -68 -234q-55 -166 -112 -297q-49 -111 -72 -156q25 676 24 664 q0 10 -34 14q-37 0 -76 -8q-106 -25 -103 -65q7 -54 7 -134q0 -131 -19 -335z" />
<glyph unicode="x" horiz-adv-x="643" d="M-156 117q-4 -5 -3 -10q0 -11 34 -13q9 -1 19 -1q16 0 36 3q98 18 125 58q53 70 148 221q47 -131 121 -240q12 -18 43 -18t82 18q39 14 65.5 32.5t22.5 25.5q-115 170 -181 430q215 334 414 487q12 10 12 18t-16 13q-17 5 -33 5q-6 0 -12 -1q-86 -6 -143 -51 q-139 -109 -267 -273q-49 231 -69 309q-5 19 -40 19q-28 0 -77 -12q-99 -25 -99 -59t26 -125t34 -128q37 -182 55 -250q-277 -429 -297 -458z" />
<glyph unicode="y" horiz-adv-x="716" d="M-178 -145q-6 -40 -6 -74q0 -74 28 -115q44 -62 142 -62q37 0 82 9q137 25 221 108q55 55 108 162q70 141 125 365q90 367 117 532q31 184 31 330q0 17 -29 17q-25 0 -70 -13q-96 -25 -112 -53q-27 -51 -84 -246q-59 -209 -113 -356q-34 -92 -67 -160q-18 -35 -33 -55 q-8 18 -8 143v12q0 363 182 721q6 10 -2 16.5t-31 8.5q-35 0 -51 -4q-106 -18 -127 -58q-123 -240 -170 -559q-16 -104 -16 -268q0 -111 90 -131q27 -6 55 -7q82 0 180 54q29 16 45 33q-25 -98 -49 -174q-76 -233 -172 -330q-4 2 -20 14q-38 31 -39 121q0 27 4 60q0 4 1 8 t1 8q4 20 -53 14q-31 -2 -62 -10q-92 -24 -98 -61z" />
<glyph unicode="z" horiz-adv-x="677" d="M-88 170q27 -48 120 -48q29 0 66 5q69 8 127 8t94 -8q14 -3 29 -3q50 0 121 32q29 16 39 26q23 23 -12 29q-52 11 -123 11q-57 0 -127 -7q-84 -14 -125 -14q43 80 143 219q123 170 150 215q240 387 288 446q-76 20 -90 22.5t-39 2.5q-40 -3 -104 -12l-47.5 -7.5 t-36.5 -5.5t-18 -2q-63 -6 -103 -6q-53 0 -71 10q-18 8 -44 9q-40 0 -96 -21q-23 -6 -47 -24q-40 -25 -16 -35q54 -25 153 -25q41 0 90 4q6 0 26 3t57.5 7.5t78.5 10.5q-16 -20 -262 -416q-35 -57 -156 -223q-75 -103 -75 -164q0 -22 10 -39z" />
<glyph unicode="|" d="M426 -418v1995h162v-1995h-162z" />
<glyph unicode="~" d="M94 555v158q65 74 123 98q63 27 115 27q63 0 180 -50q121 -51 172 -51t109 29q55 29 131 113v-156q-70 -76 -123 -98q-63 -27 -117 -27q-59 0 -176 49t-176 49q-51 0 -109 -28q-51 -27 -129 -113z" />
<glyph unicode="&#xa2;" horiz-adv-x="1138" />
<glyph unicode="&#xad;" horiz-adv-x="669" />
<glyph unicode="&#xb4;" horiz-adv-x="1024" d="M315 1077l291 297q37 37 56 47q23 12 40 13q33 0 53.5 -20.5t20.5 -49.5q0 -23 -14 -43q-12 -16 -47 -41l-330 -203h-70z" />
<glyph unicode="&#x2000;" horiz-adv-x="831" />
<glyph unicode="&#x2001;" horiz-adv-x="1665" />
<glyph unicode="&#x2002;" horiz-adv-x="831" />
<glyph unicode="&#x2003;" horiz-adv-x="1665" />
<glyph unicode="&#x2004;" horiz-adv-x="552" />
<glyph unicode="&#x2005;" horiz-adv-x="415" />
<glyph unicode="&#x2006;" horiz-adv-x="276" />
<glyph unicode="&#x2007;" horiz-adv-x="276" />
<glyph unicode="&#x2008;" horiz-adv-x="206" />
<glyph unicode="&#x2009;" horiz-adv-x="331" />
<glyph unicode="&#x200a;" horiz-adv-x="90" />
<glyph unicode="&#x2010;" horiz-adv-x="669" />
<glyph unicode="&#x2011;" horiz-adv-x="669" />
<glyph unicode="&#x2012;" horiz-adv-x="669" />
<glyph unicode="&#x2013;" horiz-adv-x="1107" d="M55 420v119h998v-119h-998z" />
<glyph unicode="&#x2014;" horiz-adv-x="2048" d="M0 420v119h2048v-119h-2048z" />
<glyph unicode="&#x2018;" horiz-adv-x="1218" d="M-6 1325q-35 -117 16 -215q16 -35 123 0q49 14 70 29q29 18 22 30q-49 92 -22 193q25 94 106 162q23 20 -4 28q-29 8 -45 7q-92 -10 -143 -52q-92 -76 -123 -182z" />
<glyph unicode="&#x2019;" horiz-adv-x="1218" d="M-20 1128q-23 -20 4 -28q29 -8 45 -6q92 10 143 51q96 80 125 180q34 114 -18 215q-20 35 -125 2q-45 -14 -68 -29q-29 -18 -23 -30q49 -92 23 -193q-24 -94 -106 -162z" />
<glyph unicode="&#x201c;" horiz-adv-x="1218" d="M-20 1128q-23 -20 4 -28q29 -8 45 -6q92 10 143 51q96 80 125 180q34 114 -18 215q-20 35 -125 2q-45 -14 -68 -29q-29 -18 -23 -30q49 -92 23 -193q-24 -94 -106 -162zM309 1128q-23 -20 4 -28q29 -8 45 -6q92 10 144 51q96 80 125 180q34 114 -19 215q-20 35 -125 2 q-41 -12 -65 -29q-31 -20 -25 -30q49 -92 23 -193q-25 -94 -107 -162z" />
<glyph unicode="&#x201d;" horiz-adv-x="1218" d="M-10 1128q-23 -20 4 -28q29 -8 45 -6q92 10 143 51q92 78 123 180q35 117 -16 215q-20 35 -125 2q-45 -14 -68 -29q-29 -18 -22 -30q49 -92 22 -193q-24 -94 -106 -162zM319 1128q-23 -20 5 -28q29 -8 45 -6q92 10 143 51q96 80 125 180q34 114 -19 215q-20 35 -124 2 q-45 -14 -68 -29q-29 -18 -23 -30q49 -92 23 -193q-25 -94 -107 -162z" />
<glyph unicode="&#x2022;" horiz-adv-x="1024" d="M215 719q0 121 88 209q86 86 209 86q121 0 209 -88t88 -207q0 -123 -88 -211q-86 -86 -209 -86q-125 0 -211 86t-86 211z" />
<glyph unicode="&#x2026;" horiz-adv-x="2048" d="M129 135q0 16 16 33l82 84q12 12 29 12q14 0 31 -14l80 -86q12 -16 12 -31q0 -16 -14 -31l-80 -88q-18 -18 -29 -18q-18 0 -29 12l-88 103q-10 14 -10 24zM811 135q0 16 16 33l82 84q12 12 28.5 12t33.5 -14l80 -86q12 -16 12 -31q0 -16 -14 -31l-80 -88q-18 -18 -31 -18 q-18 0 -29 12l-88 103q-10 14 -10 24zM1495 135q0 16 16 33l82 84q12 12 29 12q14 0 31 -14l80 -86q12 -16 12 -31q0 -16 -14 -31l-80 -88q-18 -18 -29 -18q-18 0 -29 12l-88 103q-10 14 -10 24z" />
<glyph unicode="&#x202f;" horiz-adv-x="331" />
<glyph unicode="&#x205f;" horiz-adv-x="415" />
<glyph unicode="&#x2122;" horiz-adv-x="1495" />
<glyph unicode="&#xe000;" horiz-adv-x="1150" d="M0 1150h1150v-1150h-1150v1150z" />
<glyph unicode="&#xf001;" horiz-adv-x="1071" />
<glyph unicode="&#xfb01;" horiz-adv-x="1071" />
<glyph unicode="&#xf002;" horiz-adv-x="1079" />
<glyph unicode="&#xfb02;" horiz-adv-x="1079" />
<glyph unicode="&#xfb03;" horiz-adv-x="1236" d="M774 147q3 -19 37 -18q27 0 76 12q101 26 100 60q0 3 -0.5 9t-0.5 10q0 48 42 186q8 25 66 231q7 28 41.5 145.5t49.5 191t15 138.5q0 20 -35 21q-20 0 -51 -7q-55 -10 -82 -24q-39 -18 -43 -33q-37 -199 -106 -471l-66 -231q-44 -149 -44 -204q0 -10 1 -16zM964 1362 q35 -23 72 -59q7 -7 36 -7h19q39 2 82 19q72 24 72 46q0 7 -6 13q-33 33 -74 60q-12 7 -35 7q-8 0 -18 -1q-35 -2 -84 -21q-33 -12 -47 -22q-24 -14 -24 -25q-1 -6 7 -10zM303 1085q-2 -4 -1 -6q0 -16 36 -16q27 0 51 6q59 14 137 21q-47 -162 -80 -349q-72 -418 -72 -592 q0 -14 1 -26q0 -12 33 -12q29 0 73 10q104 25 105 65q-1 13 -1 27q0 152 60 520q25 162 78 361q16 0 115 -4l67.5 -4.5t48.5 -2.5h9q73 0 141 47q23 18 20 29q-6 16 -34 17q-268 6 -343 6q70 227 150 344l2 4q2 4 4 6q16 -23 41 -90q7 -18 40 -18q29 0 77 14q95 30 95 60 q0 4 -1 7q-41 121 -113 146q-14 5 -34 5q-36 0 -101 -18q-71 -22 -123 -61q-141 -106 -206 -324q-18 -63 -27 -90q-78 -12 -125 -20q-105 -22 -123 -62zM-125 1085q-2 -4 -1 -6q0 -16 36 -16q27 0 51 6q59 14 137 21q-47 -162 -80 -349q-72 -418 -72 -592q0 -14 1 -26 q0 -12 33 -12q29 0 73 10q104 25 105 65q-1 13 -1 27q0 152 60 520q25 162 78 361q16 0 115 -4l67.5 -4.5t48.5 -2.5h9q73 0 141 47q23 18 20 29q-6 16 -34 17q-268 6 -343 6q70 227 150 344l2 4q2 4 4 6q16 -23 41 -90q7 -18 40 -18q29 0 77 14q95 30 95 60q0 4 -1 7 q-41 121 -113 146q-14 5 -34 5q-36 0 -101 -18q-71 -22 -123 -61q-141 -106 -206 -324q-18 -63 -27 -90q-78 -12 -125 -20q-105 -22 -123 -62z" />
<glyph unicode="&#xfb04;" horiz-adv-x="1224" d="M755 121q0 -19 35 -19q20 0 52 7q53 12 79 24q41 18 46 33l182 813l111.5 499.5t29.5 143.5q2 5 2 9q0 16 -33 16q-20 0 -53 -7q-113 -23 -127 -57q-102 -274 -186 -721l-73 -386l-51.5 -272t-13.5 -83zM303 1085q-2 -4 -1 -6q0 -16 36 -16q27 0 51 6q59 14 137 21 q-47 -162 -80 -349q-72 -418 -72 -592q0 -14 1 -26q0 -12 33 -12q29 0 73 10q104 25 105 65q-1 13 -1 27q0 152 60 520q25 162 78 361q16 0 115 -4l67.5 -4.5t48.5 -2.5h9q73 0 141 47q23 18 20 29q-6 16 -34 17q-268 6 -343 6q70 227 150 344l2 4q2 4 4 6q16 -23 41 -90 q7 -18 40 -18q29 0 77 14q95 30 95 60q0 4 -1 7q-41 121 -113 146q-14 5 -34 5q-36 0 -101 -18q-71 -22 -123 -61q-141 -106 -206 -324q-18 -63 -27 -90q-78 -12 -125 -20q-105 -22 -123 -62zM-125 1085q-2 -4 -1 -6q0 -16 36 -16q27 0 51 6q59 14 137 21q-47 -162 -80 -349 q-72 -418 -72 -592q0 -14 1 -26q0 -12 33 -12q29 0 73 10q104 25 105 65q-1 13 -1 27q0 152 60 520q25 162 78 361q16 0 115 -4l67.5 -4.5t48.5 -2.5h9q73 0 141 47q23 18 20 29q-6 16 -34 17q-268 6 -343 6q70 227 150 344l2 4q2 4 4 6q16 -23 41 -90q7 -18 40 -18 q29 0 77 14q95 30 95 60q0 4 -1 7q-41 121 -113 146q-14 5 -34 5q-36 0 -101 -18q-71 -22 -123 -61q-141 -106 -206 -324q-18 -63 -27 -90q-78 -12 -125 -20q-105 -22 -123 -62z" />
</font>
</defs>
</svg>
